1. No user installed addons are supported, python or otherwise.
2. No, they really are not supported.
3. They are not coming back
4. Read from 1. again

Any mention of illegal streaming sites, addons or any pirated material will not be tolerated. This is not democracy and any offenders will be banned and posts deleted immediately without warning.

Other than that, we hope you enjoy MrMC so far and we welcome any input and feedback you might have.

Team MrMC.

Playback crash.

Any issues that are Nvidia Shield TV specific
Post Reply
cosmoxl
Posts: 1497
Joined: 12 Dec 2015, 14:16

Playback crash.

Post by cosmoxl » 08 Mar 2019, 15:57

I'm seeing a crash with one file, though maybe there are others that would have the same problem. I can't test them all. :)

But, this is the first I've seen this. I click to play a video and not much happens but eventually I'm taken back to the Shield home screen and see the interface as if I have a video playing in the background. e.g. the name of the movie and then a button to open or to stop it.

I've tested with and without acceleration and the same thing happens.

If I click the "open" button on the shield home screen I'm taken back into MrMC as if It's starting from being fully closed down.

https://paste2.org/FbPNejkc There' s a log. Looks like it failed to create audio renderer.

And the mediainfo for the file is

Code: Select all

Video 
ID : 1 
Format : AVC 
Format/Info : Advanced Video Codec 
Format profile : High@L4 
Format settings : CABAC / 3 Ref Frames 
Format settings, CABAC : Yes 
Format settings, RefFrames : 3 frames 
Codec ID : V_MPEG4/ISO/AVC 
Duration : 2 h 7 min 
Bit rate : 12.3 Mb/s 
Width : 1 920 pixels 
Height : 816 pixels 
Display aspect ratio : 2.35:1 
Frame rate mode : Constant 
Frame rate : 23.976 (24000/1001) FPS 
Color space : YUV 
Chroma subsampling : 4:2:0 
Bit depth : 8 bits 
Scan type : Progressive 
Bits/(Pixel*Frame) : 0.326 
Stream size : 10.9 GiB (69%) 
Default : Yes 
Forced : No 

Audio #1 
ID : 2 
Format : DTS ES XXCH XLL 
Format/Info : Digital Theater Systems 
Commercial name : DTS-HD Master Audio 
Codec ID : A_DTS 
Duration : 2 h 7 min 
Bit rate mode : Variable 
Bit rate : 4 564 kb/s 
Channel(s) : 7 channels 
Channel layout : C L R Ls Rs LFE Cb 
Sampling rate : 48.0 kHz 
Frame rate : 93.750 FPS (512 SPF) 
Bit depth : 24 bits 
Compression mode : Lossless 
Stream size : 4.06 GiB (26%) 
Title : Surround 6.1 
Language : English 
Default : Yes 
Forced : No 

Audio #2 
ID : 3 
Format : AAC LC 
Format/Info : Advanced Audio Codec Low Complexity 
Codec ID : A_AAC-2 
Duration : 2 h 7 min 
Bit rate : 1 007 kb/s 
Channel(s) : 6 channels 
Channel layout : C L R Ls Rs LFE 
Sampling rate : 48.0 kHz 
Frame rate : 46.875 FPS (1024 SPF) 
Compression mode : Lossy 
Delay relative to video : 9 ms 
Stream size : 918 MiB (6%) 
Title : Surround 6.1 
Language : English 
Default : No 
Forced : No 

Post Reply