Page 1 of 1

3D scaling

Posted: 13 May 2017, 08:11
by N0ki@3510i
Hi @ all,

I want to watch a 3D-Movie (HOU) on my FireTV 2ndGen.
The mkv is on my Ubuntu PC and I take it via NFS to my FireTV.
Every works fine with normal FullHD-movies.

But if I try the 3D-film, I've a picture that looks like 4:3 and in this scal there are the over-under-pictures.
Then I activate the 3D on my TV (LG) and I get a good 3D-pic but have on both sides (left and right) a big black area.

I looked in every setting but nothing will "scalling" the movie to a normal 16:9.

I hope you can help me and sorry for the english :oops:

N0ki@
___________________
edit:
I tested a HSBS-movie and i looks like the same but with a long small picture an big black areas over and under the film.

Re: 3D scaling

Posted: 13 May 2017, 10:37
by davilla
MediaInfo on the file you are having issue with.

Re: 3D scaling

Posted: 04 Jun 2017, 14:19
by GPinzone
I am having issues, too. Here's a dump of one that scales improperly in both 2D and 3D modes:

General
Unique ID : 181119991743993664804286652049226135105 (0x8842710A40ABFEB0B51DC63EDE52F641)
Complete name : XXX.mkv
Format : Matroska
Format version : Version 4 / Version 2
File size : 8.74 GiB
Duration : 2 h 0 min
Overall bit rate : 10.4 Mb/s
Encoded date : UTC 2015-08-22 00:09:41
Writing application : mkvmerge v8.3.0 ('Over the Horizon') 64bit
Writing library : libebml v1.3.1 + libmatroska v1.4.2

Video
ID : 1
Format : AVC
Format/Info : Advanced Video Codec
Format profile : High@L4.1
MultiView_Count : 2
MultiView_Layout : Side by Side (left eye first)
Format settings, CABAC : Yes
Format settings, ReFrames : 5 frames
Codec ID : V_MPEG4/ISO/AVC
Duration : 2 h 0 min
Bit rate : 8 846 kb/s
Width : 1 920 pixels
Height : 800 pixels
Display aspect ratio : 2.40:1
Frame rate mode : Constant
Frame rate : 23.976 (24000/1001) FPS
Color space : YUV
Chroma subsampling : 4:2:0
Bit depth : 8 bits
Scan type : Progressive
Bits/(Pixel*Frame) : 0.240
Stream size : 7.46 GiB (85%)
Writing library : x264 core 142 r2479 dd79a61
Encoding settings : cabac=1 / ref=5 / deblock=1:0:0 / analyse=0x3:0x133 / me=umh / subme=7 / psy=1 / psy_rd=1.00:0.00 / mixed_ref=1 / me_range=16 / chroma_me=1 / trellis=1 / 8x8dct=1 / cqm=0 / deadzone=21,11 / fast_pskip=0 / chroma_qp_offset=-2 / threads=12 / lookahead_threads=2 / sliced_threads=0 / nr=0 / decimate=1 / interlaced=0 / bluray_compat=0 / constrained_intra=0 / bframes=3 / b_pyramid=2 / b_adapt=1 / b_bias=0 / direct=1 / weightb=1 / open_gop=0 / weightp=2 / keyint=250 / keyint_min=23 / scenecut=40 / intra_refresh=0 / rc_lookahead=40 / rc=2pass / mbtree=1 / bitrate=8846 / ratetol=1.0 / qcomp=0.60 / qpmin=0 / qpmax=69 / qpstep=4 / cplxblur=20.0 / qblur=0.5 / ip_ratio=1.40 / aq=1:1.00
Language : English
Default : Yes
Forced : No

Audio
ID : 2
Format : DTS
Format/Info : Digital Theater Systems
Mode : 16
Format settings, Endianness : Big
Codec ID : A_DTS
Duration : 2 h 0 min
Bit rate mode : Constant
Bit rate : 1 509 kb/s
Channel(s) : 6 channels
Channel positions : Front: L C R, Side: L R, LFE
Sampling rate : 48.0 kHz
Frame rate : 93.750 FPS (512 spf)
Bit depth : 24 bits
Compression mode : Lossy
Stream size : 1.27 GiB (15%)
Language : English
Default : Yes
Forced : No

Menu
00:00:00.000 : en:00:00:00.000
00:04:05.704 : en:00:04:05.704
00:11:21.806 : en:00:11:21.806
00:15:21.712 : en:00:15:21.712
00:20:54.420 : en:00:20:54.420
00:27:11.213 : en:00:27:11.213
00:33:58.828 : en:00:33:58.828
00:44:28.291 : en:00:44:28.291
00:50:53.008 : en:00:50:53.008
00:55:17.564 : en:00:55:17.564
00:59:45.207 : en:00:59:45.207
01:06:06.921 : en:01:06:06.921
01:14:46.023 : en:01:14:46.023
01:22:20.644 : en:01:22:20.644
01:26:29.726 : en:01:26:29.726
01:30:23.877 : en:01:30:23.877
01:35:58.378 : en:01:35:58.378
01:40:46.749 : en:01:40:46.749
01:47:35.366 : en:01:47:35.366
01:53:16.623 : en:01:53:16.623
02:00:10.829 : en:02:00:10.829

Re: 3D scaling

Posted: 04 Jun 2017, 15:26
by GPinzone
Here is another one. This one doesn't work when in monoscopic 2D mode:

General
Unique ID : 210710059134105855334552078044527813968 (0x9E8547FFCDA25D958F9E197E9A376550)
Complete name : CL.mkv
Format : Matroska
Format version : Version 4 / Version 2
File size : 7.91 GiB
Duration : 1 h 40 min
Overall bit rate : 11.3 Mb/s
Encoded date : UTC 2015-08-22 01:57:52
Writing application : mkvmerge v8.3.0 ('Over the Horizon') 64bit
Writing library : libebml v1.3.1 + libmatroska v1.4.2

Video
ID : 1
Format : AVC
Format/Info : Advanced Video Codec
Format profile : High@L4.1
MultiView_Count : 2
MultiView_Layout : Side by Side (left eye first)
Format settings, CABAC : Yes
Format settings, ReFrames : 4 frames
Codec ID : V_MPEG4/ISO/AVC
Duration : 1 h 40 min
Bit rate : 10 000 kb/s
Width : 1 920 pixels
Height : 1 080 pixels
Display aspect ratio : 16:9
Frame rate mode : Constant
Frame rate : 23.976 FPS
Color space : YUV
Chroma subsampling : 4:2:0
Bit depth : 8 bits
Scan type : Progressive
Bits/(Pixel*Frame) : 0.201
Stream size : 6.85 GiB (87%)
Title : 1080p-side-by-side
Writing library : x264 core 104 r1677 19df41a
Encoding settings : cabac=1 / ref=1 / deblock=1:0:0 / analyse=0x3:0x113 / me=umh / subme=7 / psy=1 / psy_rd=1.00:0.00 / mixed_ref=0 / me_range=16 / chroma_me=1 / trellis=0 / 8x8dct=1 / cqm=0 / deadzone=21,11 / fast_pskip=1 / chroma_qp_offset=-2 / threads=3 / sliced_threads=0 / nr=0 / decimate=1 / interlaced=0 / constrained_intra=0 / bframes=3 / b_pyramid=2 / b_adapt=1 / b_bias=0 / direct=1 / weightb=1 / open_gop=0 / weightp=0 / keyint=250 / keyint_min=23 / scenecut=40 / intra_refresh=0 / rc_lookahead=10 / rc=abr / mbtree=1 / bitrate=10000 / ratetol=1.0 / qcomp=0.60 / qpmin=10 / qpmax=51 / qpstep=4 / ip_ratio=1.40 / aq=1:1.00
Language : English
Default : No
Forced : No

Audio
ID : 2
Format : DTS
Format/Info : Digital Theater Systems
Mode : 16
Format settings, Endianness : Big
Codec ID : A_DTS
Duration : 1 h 40 min
Bit rate mode : Constant
Bit rate : 1 509 kb/s
Channel(s) : 6 channels
Channel positions : Front: L C R, Side: L R, LFE
Sampling rate : 48.0 kHz
Frame rate : 93.750 FPS (512 spf)
Bit depth : 24 bits
Compression mode : Lossy
Stream size : 1.06 GiB (13%)
Title : core from dtshd-ma
Language : English
Default : Yes
Forced : No

Re: 3D scaling

Posted: 04 Jun 2017, 15:26
by GPinzone
This one works fine:

General
Unique ID : 220926972477607024924070804506784238650 (0xA634FCB7F158DD75BE297593F64F0C3A)
Complete name : DM.mkv
Format : Matroska
Format version : Version 2
File size : 5.47 GiB
Duration : 1 h 34 min
Overall bit rate : 8 262 kb/s
Encoded date : UTC 2010-12-14 23:45:39
Writing application : mkvmerge v4.4.0 ('Die Wiederkehr') built on Oct 31 2010 21:52:48
Writing library : libebml v1.0.0 + libmatroska v1.0.0

Video
ID : 1
Format : AVC
Format/Info : Advanced Video Codec
Format profile : High@L4.1
Format settings, CABAC : Yes
Format settings, ReFrames : 4 frames
Muxing mode : Header stripping
Codec ID : V_MPEG4/ISO/AVC
Duration : 1 h 34 min
Bit rate : 6 589 kb/s
Width : 1 920 pixels
Height : 1 080 pixels
Display aspect ratio : 16:9
Frame rate mode : Constant
Frame rate : 23.976 (24000/1001) FPS
Color space : YUV
Chroma subsampling : 4:2:0
Bit depth : 8 bits
Scan type : Progressive
Bits/(Pixel*Frame) : 0.133
Stream size : 4.36 GiB (80%)
Title : made by z-man
Writing library : x264 core 110 r1820 fdcf2ae
Encoding settings : cabac=1 / ref=4 / deblock=1:-1:-1 / analyse=0x3:0x113 / me=umh / subme=7 / psy=1 / psy_rd=1.00:0.15 / mixed_ref=1 / me_range=16 / chroma_me=1 / trellis=1 / 8x8dct=1 / cqm=0 / deadzone=21,11 / fast_pskip=1 / chroma_qp_offset=-3 / threads=18 / sliced_threads=0 / nr=0 / decimate=1 / interlaced=0 / constrained_intra=0 / bframes=3 / b_pyramid=2 / b_adapt=1 / b_bias=0 / direct=3 / weightb=1 / open_gop=0 / weightp=2 / keyint=250 / keyint_min=23 / scenecut=40 / intra_refresh=0 / rc_lookahead=40 / rc=crf / mbtree=1 / crf=18.0 / qcomp=0.60 / qpmin=0 / qpmax=51 / qpstep=4 / ip_ratio=1.40 / aq=1:1.00
Language : English
Default : Yes
Forced : No

Audio
ID : 2
Format : DTS
Format/Info : Digital Theater Systems
Mode : 16
Format settings, Endianness : Big
Muxing mode : Header stripping
Codec ID : A_DTS
Duration : 1 h 34 min
Bit rate mode : Constant
Bit rate : 1 509 kb/s
Channel(s) : 6 channels
Channel positions : Front: L C R, Side: L R, LFE
Sampling rate : 48.0 kHz
Frame rate : 93.750 FPS (512 spf)
Bit depth : 24 bits
Compression mode : Lossy
Stream size : 1 023 MiB (18%)
Language : English
Default : Yes
Forced : No

Re: 3D scaling

Posted: 04 Jun 2017, 15:28
by GPinzone
I noticed the working one doesn't have the "MultiView_Count : 2" and "MultiView_Layout : Side by Side (left eye first)" data in the MKV container.