1. No user installed addons are supported, python or otherwise.
2. No, they really are not supported.
3. They are not coming back
4. Read from 1. again

Any mention of illegal streaming sites, addons or any pirated material will not be tolerated. This is not democracy and any offenders will be banned and posts deleted immediately without warning.

Other than that, we hope you enjoy MrMC so far and we welcome any input and feedback you might have.

Team MrMC.

Atmos

Any issues that are tvOS specific
aureldelic
Posts: 11
Joined: 09 Aug 2016, 08:52

Atmos

Post by aureldelic » 06 Mar 2019, 06:56

I have been trying to play a certain atmos enabled aquaman mkv file with the new mrmc, but cant get atmos on my denon avr x1200 receiver.
Netflix, itunes and Prime work with atmos without problems. If anyone has tried the same file, can they confirm atmos works?

User avatar
timstephens24
Posts: 831
Joined: 09 Dec 2015, 22:43

Re: Atmos

Post by timstephens24 » 06 Mar 2019, 10:35

Is it EAC3+Atmos or TrueHD+Atmos? If it's the second you won't get Atmos.
Apple TV 4K / NVIDIA Shield -> Denon X6500H 7.2.4 -> LG OLED65C6P
Channels DVR w/ HDHomeRun Connect Quattro
Patiently Testing all the things // Multiple other devices
##### SYNOLOGY 1815+ #####

User avatar
Everbrave
Posts: 324
Joined: 30 Dec 2016, 23:03

Re: Atmos

Post by Everbrave » 06 Mar 2019, 10:53

timstephens24 wrote:
06 Mar 2019, 10:35
Is it EAC3+Atmos or TrueHD+Atmos? If it's the second you won't get Atmos.
unfortunately, most Atmos media is TrueHD; do you get Atmos from Nvidia Shield?

aureldelic
Posts: 11
Joined: 09 Aug 2016, 08:52

Re: Atmos

Post by aureldelic » 06 Mar 2019, 12:52

Yes I know trueHD doesnt work, this is an khm khm rip of popular "tunes" service, first in 4k HDR, and audio is said to be:

Format : E-AC-3 JOC
Format/Info : Enhanced AC-3 with Joint Object Coding
Commercial name : Dolby Digital Plus with Dolby Atmos
Codec ID : A_EAC3
Duration : 2 h 23 min
Bit rate mode : Constant
Bit rate : 576 kb/s
Channel(s) : 6 channels
Channel layout : L R C LFE Ls Rs
Sampling rate : 48.0 kHz
Frame rate : 31.250 FPS (1536 SPF)
Compression mode : Lossy
Stream size : 591 MiB (4%)
Language : English
Service kind : Complete Main
Default : Yes
Forced : No
Complexity index : 16
Number of dynamic objects : 15
Bed channel count : 1 channel
Bed channel configuration : LFE

User avatar
davilla
Team MrMC
Posts: 3989
Joined: 26 Oct 2015, 17:01

Re: Atmos

Post by davilla » 06 Mar 2019, 13:05

aureldelic wrote:
06 Mar 2019, 12:52
Yes I know trueHD doesnt work, this is an khm khm rip of popular "tunes" service, first in 4k HDR, and audio is said to be:

Format : E-AC-3 JOC
Format/Info : Enhanced AC-3 with Joint Object Coding
Commercial name : Dolby Digital Plus with Dolby Atmos
Codec ID : A_EAC3
Duration : 2 h 23 min
Bit rate mode : Constant
Bit rate : 576 kb/s
Channel(s) : 6 channels
Channel layout : L R C LFE Ls Rs
Sampling rate : 48.0 kHz
Frame rate : 31.250 FPS (1536 SPF)
Compression mode : Lossy
Stream size : 591 MiB (4%)
Language : English
Service kind : Complete Main
Default : Yes
Forced : No
Complexity index : 16
Number of dynamic objects : 15
Bed channel count : 1 channel
Bed channel configuration : LFE
sample please, or ref to original name so I can find it.

User avatar
davilla
Team MrMC
Posts: 3989
Joined: 26 Oct 2015, 17:01

Re: Atmos

Post by davilla » 06 Mar 2019, 13:06

Also, FYI, atmos will only work with AppleTV4K.

aureldelic
Posts: 11
Joined: 09 Aug 2016, 08:52

Re: Atmos

Post by aureldelic » 06 Mar 2019, 13:13

Aquaman.2018.IMAX.2160p.iT.WEB-DL.x265.10bit.HDR.DDP5.1.Atmos-MOMA

And yes, I have apple tv 4k connected directly to my Denon receiver, and as I said, Netflix, Itunes, Amazon prime video ATMOS works...

Nik3sh
Posts: 5
Joined: 15 Jan 2018, 15:28

Re: Atmos

Post by Nik3sh » 06 Mar 2019, 21:35

Yup have the same file and the DD+ Atmos track is not working using Apple TV 4K with mrmc, works correctly using my Shield TV with Plex.

User avatar
timstephens24
Posts: 831
Joined: 09 Dec 2015, 22:43

Re: Atmos

Post by timstephens24 » 06 Mar 2019, 22:09

Everbrave wrote:
06 Mar 2019, 10:53
unfortunately, most Atmos media is TrueHD; do you get Atmos from Nvidia Shield?
Yes, but this is the Apple TV support area so outside the scope of this thread.
Apple TV 4K / NVIDIA Shield -> Denon X6500H 7.2.4 -> LG OLED65C6P
Channels DVR w/ HDHomeRun Connect Quattro
Patiently Testing all the things // Multiple other devices
##### SYNOLOGY 1815+ #####

User avatar
davilla
Team MrMC
Posts: 3989
Joined: 26 Oct 2015, 17:01

Re: Atmos

Post by davilla » 06 Mar 2019, 23:10

aureldelic wrote:
06 Mar 2019, 13:13
Aquaman.2018.IMAX.2160p.iT.WEB-DL.x265.10bit.HDR.DDP5.1.Atmos-MOMA
Got it :) I'll have to put on the hipboots and wade into ffmpeg to see why eac3/atmos is not getting detected for this one.

Post Reply