1. No user installed addons are supported, python or otherwise.
2. No, they really are not supported.
3. They are not coming back
4. Read from 1. again

Any mention of illegal streaming sites, addons or any pirated material will not be tolerated. This is not democracy and any offenders will be banned and posts deleted immediately without warning.

Other than that, we hope you enjoy MrMC so far and we welcome any input and feedback you might have.

Team MrMC.

Dolby Vision

Any issues that are tvOS specific
User avatar
davilla
Team MrMC
Posts: 4086
Joined: 26 Oct 2015, 17:01

Re: Dolby Vision

Post by davilla » 30 Jun 2019, 19:50

Grencola wrote:
26 Jun 2019, 01:23
[ooh, you guys could totally collab! https://forum.dvdfab.cn/forum/uhd-copy- ... iew=stream
If you let these devs know that MrMC is indeed software that can do it, maybe they'll make an MrMC profile using .ts with copy audio and a video quality slider that can go up to lossless. that would be amazing! they clearly have everything they need to do it, just no incentive as they don't realize MrMC's capabilities :)
Well, I tried :) Seems they are not interested.

Grencola
Posts: 93
Joined: 25 Feb 2018, 03:02

Re: Dolby Vision

Post by Grencola » 30 Jun 2019, 21:16

davilla wrote:
30 Jun 2019, 19:17
So I got curious, fetched Escape.Room.2019.2160p.DolbyVision.WEB-DL.DTS-HD.MA.5.1.H.265-BLUTONiUM

Mediinfo :

Code: Select all

Complete name                            : /Volumes/Multimedia/Movies/Movies/Escape Room (2019)/Escape Room (2019) WEBDL-2160p.mkv
Format                                   : Matroska
Format version                           : Version 4 / Version 2
File size                                : 11.4 GiB
Duration                                 : 1 h 39 min
Overall bit rate                         : 16.4 Mb/s
Encoded date                             : UTC 2019-05-27 10:04:32
Writing application                      : mkvmerge v32.0.0 ('Astral Progressions') 64-bit
Writing library                          : libebml v1.3.7 + libmatroska v1.5.0

Video
ID                                       : 1
Format                                   : HEVC
Format/Info                              : High Efficiency Video Coding
Format profile                           : Main 10@L5.1@Main
Codec ID                                 : V_MPEGH/ISO/HEVC
Duration                                 : 1 h 39 min
Bit rate                                 : 13.5 Mb/s
Width                                    : 3 840 pixels
Height                                   : 2 160 pixels
Display aspect ratio                     : 16:9
Frame rate mode                          : Constant
Frame rate                               : 23.976 (24000/1001) FPS
Color space                              : YUV
Chroma subsampling                       : 4:2:0 (Type 2)
Bit depth                                : 10 bits
Bits/(Pixel*Frame)                       : 0.068
Stream size                              : 9.41 GiB (82%)
Default                                  : Yes
Forced                                   : No
Color range                              : Full

Audio #1
ID                                       : 2
Format                                   : DTS
Format/Info                              : Digital Theater Systems
Format profile                           : MA / Core
Codec ID                                 : A_DTS
Duration                                 : 1 h 39 min
Bit rate mode                            : Variable / Constant
Bit rate                                 : 2 247 kb/s / 1 509 kb/s
Channel(s)                               : 6 channels
Channel positions                        : Front: L C R, Side: L R, LFE
Sampling rate                            : 48.0 kHz
Frame rate                               : 93.750 FPS (512 SPF)
Bit depth                                : 16 bits
Compression mode                         : Lossless / Lossy
Stream size                              : 1.56 GiB (14%)
Default                                  : Yes
Forced                                   : No

Audio #2
ID                                       : 3
Format                                   : AC-3
Format/Info                              : Audio Coding 3
Codec ID                                 : A_AC3
Duration                                 : 1 h 39 min
Bit rate mode                            : Constant
Bit rate                                 : 640 kb/s
Channel(s)                               : 6 channels
Channel positions                        : Front: L C R, Side: L R, LFE
Sampling rate                            : 48.0 kHz
Frame rate                               : 31.250 FPS (1536 SPF)
Bit depth                                : 16 bits
Compression mode                         : Lossy
Stream size                              : 456 MiB (4%)
Service kind                             : Complete Main
Default                                  : No
Forced                                   : No

Text
ID                                       : 4
Format                                   : UTF-8
Codec ID                                 : S_TEXT/UTF8
Codec ID/Info                            : UTF-8 Plain Text
Duration                                 : 1 h 37 min
Bit rate                                 : 81 b/s
Count of elements                        : 1764
Stream size                              : 58.2 KiB (0%)
Default                                  : Yes
Forced                                   : No
It's not DolbyVision and worse, they screwed up the colors. Nice work guys :)
lol wow. I never saw the mediainfo as I don't have access to private tracker sites. but that's literally what is happening to my mkv's I make right now, so they clearly did my above method. literally the only thing left in making a full dv mkv remux is properly extracting the single layer h265 video track from the mp4 without losing dolby vision.

sahara
Posts: 25
Joined: 08 Jul 2018, 08:22

Re: Dolby Vision

Post by sahara » 30 Jun 2019, 21:36

11.4 GB, think that some people really believe this... :lol:

Grencola
Posts: 93
Joined: 25 Feb 2018, 03:02

Re: Dolby Vision

Post by Grencola » 30 Jun 2019, 22:13

sahara wrote:
30 Jun 2019, 21:36
11.4 GB, think that some people really believe this... :lol:
haha ya I had no idea, was literally going by the filename only. that's pretty sad ppl try and pass this off as Dolby Vision. Also kinda cool it's not cuz as soon as we get this last step we'll be the first with dv mkv remuxes :)

Morten1969
Posts: 34
Joined: 17 Jun 2019, 12:56

Re: Dolby Vision

Post by Morten1969 » 02 Jul 2019, 10:48

When i rip to DV 1.0 the subtitles is output into a separate file moviename.sub.
When i play the movie in mrmc you can see all the subtitles but they will not show up on movie. Can this bee fixed.

User avatar
davilla
Team MrMC
Posts: 4086
Joined: 26 Oct 2015, 17:01

Re: Dolby Vision

Post by davilla » 02 Jul 2019, 12:02

Morten1969 wrote:
02 Jul 2019, 10:48
When i rip to DV 1.0 the subtitles is output into a separate file moviename.sub.
When i play the movie in mrmc you can see all the subtitles but they will not show up on movie. Can this bee fixed.
Only if I get samples so I can reproduce the issue.

Morten1969
Posts: 34
Joined: 17 Jun 2019, 12:56

Re: Dolby Vision

Post by Morten1969 » 02 Jul 2019, 12:10

davilla wrote:
02 Jul 2019, 12:02
Morten1969 wrote:
02 Jul 2019, 10:48
When i rip to DV 1.0 the subtitles is output into a separate file moviename.sub.
When i play the movie in mrmc you can see all the subtitles but they will not show up on movie. Can this bee fixed.
Only if I get samples so I can reproduce the issue.
I will produce sample and send you later today.

sahara
Posts: 25
Joined: 08 Jul 2018, 08:22

Re: Dolby Vision

Post by sahara » 02 Jul 2019, 19:57

I noticed this too.

User avatar
davilla
Team MrMC
Posts: 4086
Joined: 26 Oct 2015, 17:01

Re: Dolby Vision

Post by davilla » 04 Jul 2019, 02:16

subs work for smb/nfs.

plex server does not support VOBSUB.

https://support.plex.tv/articles/200471 ... our-media/
Supported Subtitle Formats:
SRT
SMI
SSA (or ASS)
WebVTT

Other formats such as VOBSUB, PGS, etc. may work on some Plex apps but not all. For almost all apps, both VOBSUB and PGS subtitles will require the video be transcoded to “burned in” the subtitles for streaming.
idx/vob are VOBSUB

User avatar
davilla
Team MrMC
Posts: 4086
Joined: 26 Oct 2015, 17:01

Re: Dolby Vision

Post by davilla » 04 Jul 2019, 04:00

Checked Plex's native client, not only does it not see the subs but it does not support dvhe codec.

Post Reply