1. No user installed addons are supported, python or otherwise.
2. No, they really are not supported.
3. They are not coming back
4. Read from 1. again

Any mention of illegal streaming sites, addons or any pirated material will not be tolerated. This is not democracy and any offenders will be banned and posts deleted immediately without warning.

Other than that, we hope you enjoy MrMC so far and we welcome any input and feedback you might have.

Team MrMC.

Hello

Introduce yourself here
Post Reply
Babybau
Posts: 5
Joined: 02 Mar 2018, 05:46

Hello

Post by Babybau » 02 Mar 2018, 06:03

Hi,

I just downloaded MrMc on an Apple TV 4K 32gb and have loaded my tv show files easily. However, when I try to add my digital movie collection they add as a source and I see the files but they do not load to the movies tab. The naming convention I used for my movies is movie name (year).mkv All of my movies are in mkv format.

I used universal movie scraper as my information provider because I find it better when I used kodi on my pc. Any help would be greatly appreciated

Thanks!

User avatar
timstephens24
Posts: 710
Joined: 09 Dec 2015, 22:43

Re: Hello

Post by timstephens24 » 02 Mar 2018, 11:10

A debuglog will show what's happening for the devs.

User avatar
amet
Team MrMC
Posts: 2219
Joined: 26 Oct 2015, 16:59

Re: Hello

Post by amet » 02 Mar 2018, 16:26

do you have the movies in the individual folders? and is the setting for the source reflecting that?

"movies are in separate folders that match the movie title"

Babybau
Posts: 5
Joined: 02 Mar 2018, 05:46

Re: Hello

Post by Babybau » 02 Mar 2018, 17:00

Hi,

All of my movies are in the same folder. One giant movie folder with the movies setup with file names and year for the movie.

I was playing around with it last night and if I Long press on a movie and hit movie information it will search for the movie and then add it to the movie tab instead of being in files.

I can double check the settings when I get home but I am pretty sure I didn’t have it set for movies are in separate folders.

Babybau
Posts: 5
Joined: 02 Mar 2018, 05:46

Re: Hello

Post by Babybau » 03 Mar 2018, 19:40

Hi Everyone,

So I downloaded the app on another apple tv for testing. I add my TV show folders and at first it doesn't add them to the TV show tab but when I then long pause on the source and hit scan for new content it will then add the TV shows.

I tried the same technique with the movie folder but no such luck. I am using the universal scraper instead of the movie database because on Kodi I have always found it to have better results. I deleted the source and tried again with the movie database and the same results. No movies added to the movies tab.

The setup I have is SMB for the files since they are on a windows device. In Services - Settings for SMB I have my workgroup name in there, checked the radio for use libdsm for smb servers, radio checked for force smb v1, smb stat is checked and smb timeout is 10 (default).

In Video - Library I have import all videos checked as well as update library on startup. Here are some excerpts from the log for the movies folder:

12:27:16 T:6158168064 WARNING: Process directory 'smb://SERVER/Movies/' does not exist - skipping scan.
12:27:16 T:6158168064 NOTICE: VideoInfoScanner: Finished scan. Scanning for video info took 00:00

12:27:18 T:6155300864 ERROR: CDSMSession: No directory found for 'Movies/System Volume Information/'
12:27:18 T:6155300864 ERROR: GetDirectory - Error getting smb://SERVER/Movies/System Volume Information/
12:27:18 T:6155300864 ERROR: CDSMSession: No directory found for 'Movies/System Volume Information/'
12:27:18 T:6155300864 ERROR: GetDirectory - Error getting smb://SERVER/Movies/System Volume Information/
12:27:18 T:6155300864 ERROR: CDSMSession: No directory found for 'Movies/System Volume Information/'
12:27:18 T:6155300864 ERROR: GetDirectory - Error getting smb://SERVER/Movies/System Volume Information/
12:27:18 T:6155300864 ERROR: CDSMSession: No directory found for 'Movies/System Volume Information/'
12:27:18 T:6155300864 ERROR: GetDirectory - Error getting smb://SERVER/Movies/System Volume Information/
12:27:18 T:6158168064 DEBUG: DoWork - trying to extract thumb from video file smb://SERVER/Movies/2 Guns (2013).mkv
12:27:26 T:6158168064 DEBUG: CDSMFile::Open - opened Movies/2 Guns (2013).mkv, fd=268517378
2:27:26 T:6158168064 DEBUG: Open - m_ioContext->max_packet_size(1) = 32768
12:27:26 T:6158168064 DEBUG: Read - max read bytes = 32768
12:27:26 T:6158168064 DEBUG: Open - probing detected format [matroska,webm]
12:27:26 T:6158168064 DEBUG: Open - avformat_find_stream_info starting
12:27:26 T:6158168064 DEBUG: ffmpeg[16F0E3000]: [h264] Reinit context to 1920x800, pix_fmt: yuv420p
12:27:26 T:6159888384 DEBUG: found key /userdata/addon_data/metadata.universal/settings.xml
12:27:27 T:6158168064 DEBUG: Previous line repeats 1 times.
12:27:27 T:6158168064 DEBUG: ffmpeg[16F0E3000]: [matroska,webm] max_analyze_duration 5000000 reached at 5005000 microseconds st:0
12:27:27 T:6158168064 DEBUG: ffmpeg[16F0E3000]: [matroska,webm] Could not find codec parameters for stream 2 (Subtitle: hdmv_pgs_subtitle): unspecified size
12:27:27 T:6158168064 DEBUG: ffmpeg[16F0E3000]: [matroska,webm] Consider increasing the value for the 'analyzeduration' and 'probesize' options
12:27:27 T:6158168064 DEBUG: Open - av_find_stream_info finished
12:27:27 T:6158168064 INFO: ffmpeg[16F0E3000]: Input #0, matroska,webm, smb://SERVER/Movies/2 Guns (2013).mk':
12:27:27 T:6158168064 INFO: ffmpeg[16F0E3000]: Metadata:
12:27:27 T:6158168064 INFO: ffmpeg[16F0E3000]: title : 2 Guns
12:27:27 T:6158168064 INFO: ffmpeg[16F0E3000]: ENCODER : Lavf55.12.0
12:27:27 T:6158168064 INFO: ffmpeg[16F0E3000]: Duration: 01:49:15.42, start: 0.083000, bitrate: 3800 kb/s
12:27:27 T:6158168064 INFO: ffmpeg[16F0E3000]: Stream #0:0: Video: h264 (Main), yuv420p(tv, bt709, progressive), 1920x800 [SAR 1:1 DAR 12:5], 23.98 fps, 23.98 tbr, 1k tbn, 180k tbc (default)
12:27:27 T:6158168064 INFO: ffmpeg[16F0E3000]: Stream #0:1(eng): Audio: dts (DTS), 48000 Hz, 5.1(side), fltp, 1536 kb/s (default)
12:27:27 T:6158168064 INFO: ffmpeg[16F0E3000]: Metadata:
12:27:27 T:6158168064 INFO: ffmpeg[16F0E3000]: title : Surround
12:27:27 T:6158168064 INFO: ffmpeg[16F0E3000]: LANGUAGE : eng
12:27:27 T:6158168064 INFO: ffmpeg[16F0E3000]: Stream #0:2(eng): Subtitle: hdmv_pgs_subtitle
12:27:27 T:6158168064 DEBUG: CDVDDemuxFFmpeg::AddStream(0, ...) -> 0
12:27:27 T:6158168064 DEBUG: CDVDDemuxFFmpeg::AddStream(1, ...) -> 1
12:27:27 T:6158168064 DEBUG: CDVDDemuxFFmpeg::AddStream(2, ...) -> 2
12:27:27 T:6158168064 DEBUG: ScanForExternalSubtitles: Searching for subtitles...
12:27:27 T:6158168064 DEBUG: ScanForExternalSubtitles: END (total time: 224 ms)
12:27:27 T:6158168064 DEBUG: FactoryCodec - Video: - Opening
12:27:27 T:6158168064 NOTICE: CDVDVideoCodecFFmpeg::Open() Using codec: H.264 / AVC / MPEG-4 AVC / MPEG-4 part 10
12:27:27 T:6158168064 DEBUG: FactoryCodec - Video: ff-h264 - Opened
12:27:27 T:6158168064 DEBUG: ExtractThumb - seeking to pos 2185141ms (total: 6555424ms) in smb://SERVER/Movies/2 Guns (2013).mkv
12:27:27 T:6159888384 DEBUG: found key /userdata/addon_data/metadata.universal/settings.xml
12:27:27 T:6158168064 DEBUG: Read - max read bytes = 65535
12:27:27 T:6158168064 DEBUG: ffmpeg[16F0E3000]: [h264] Reinit context to 1920x800, pix_fmt: yuv420p
12:27:28 T:6159888384 DEBUG: found key /userdata/addon_data/metadata.universal/settings.xml
12:27:28 T:6159888384 DEBUG: RunQuery took 0 ms for 0 items query: select * from movie_view WHERE c23=2
12:27:28 T:6159888384 DEBUG: RunQuery took 0 ms for 12 items query: SELECT files.strFilename, files.playCount, bookmark.timeInSeconds, bookmark.totalTimeInSeconds FROM files LEFT JOIN bookmark ON files.idFile = bookmark.idFile AND bookmark.type = 1 WHERE files.idPath=2
12:27:28 T:6158168064 DEBUG: CDSMFile::Close closing fd 268517378
12:27:28 T:6158168064 DEBUG: ExtractThumb - measured 9723 ms to extract thumb from file <smb://SERVER/Movies/2 Guns (2013).mkv> in 11 packets.
12:27:28 T:6158168064 DEBUG: DoWork - trying to extract thumb from video file smb://SERVER/Movies/8 Mile (2002).mkv
12:27:28 T:6158168064 DEBUG: CFileCache::Open - opening <Movies/8 Mile (2002).mkv> using cache
12:27:28 T:6158168064 DEBUG: CDSMFile::Open - opened Movies/8 Mile (2002).mkv, fd=268517379
12:27:28 T:6158168064 DEBUG: Open - m_ioContext->max_packet_size(1) = 0
12:27:28 T:6162182144 DEBUG: Read - max read bytes = 65535
12:27:28 T:6158168064 DEBUG: Open - probing detected format [matroska,webm]
12:27:28 T:6158168064 DEBUG: Seek - waiting for position 1304431945.
12:27:28 T:6158168064 DEBUG: Open - avformat_find_stream_info starting
12:27:29 T:6158168064 DEBUG: ffmpeg[16F0E3000]: [h264] Reinit context to 720x368, pix_fmt: yuv420p
12:27:29 T:6158168064 DEBUG: Open - av_find_stream_info finished
12:27:29 T:6158168064 INFO: ffmpeg[16F0E3000]: Input #0, matroska,webm, smb://SERVER/Movies/8 Mile (2002).mk':
12:27:29 T:6158168064 INFO: ffmpeg[16F0E3000]: Metadata:
12:27:29 T:6158168064 INFO: ffmpeg[16F0E3000]: encoder : libmkv 0.6.5
12:27:29 T:6158168064 INFO: ffmpeg[16F0E3000]: Duration: 01:50:26.91, start: 0.000000, bitrate: 1574 kb/s
12:27:29 T:6158168064 INFO: ffmpeg[16F0E3000]: Stream #0:0(eng): Video: h264 (High), yuv420p(tv, smpte170m/smpte170m/bt709, progressive), 720x368 [SAR 5888:4887 DAR 1280:543], SAR 230:191 DAR 450:191, 23.98 fps, 23.98 tbr, 1k tbn, 180k tbc (default)
12:27:29 T:6158168064 INFO: ffmpeg[16F0E3000]: Stream #0:1(eng): Audio: ac3, 48000 Hz, 5.1(side), fltp, 640 kb/s (default)
12:27:29 T:6158168064 DEBUG: CDVDDemuxFFmpeg::AddStream(0, ...) -> 0
12:27:29 T:6158168064 DEBUG: CDVDDemuxFFmpeg::AddStream(1, ...) -> 1
12:27:29 T:6158168064 DEBUG: ScanForExternalSubtitles: Searching for subtitles...
12:27:34 T:6159888384 DEBUG: CFavourites::Load - no system favourites found, skipping
12:27:34 T:6159888384 DEBUG: found key /userdata/favourites.xml
12:27:34 T:6159888384 DEBUG: CFavourites::Load - no userdata favourites found, skipping
12:27:34 T:6159888384 DEBUG: found key /userdata/addon_data/metadata.universal/settings.xml
12:27:34 T:6159888384 DEBUG: ------ Window Init (DialogContextMenu.xml) ------
12:27:37 T:6159888384 DEBUG: ------ Window Deinit (DialogContextMenu.xml) ------
12:27:37 T:6159888384 DEBUG: ------ Window Init (DialogYesNo.xml) ------
12:27:37 T:6159888384 INFO: Loading skin file: DialogYesNo.xml, load type: KEEP_IN_MEMORY
12:27:38 T:6159888384 DEBUG: ------ Window Deinit (DialogYesNo.xml) ------
12:27:38 T:6159888384 DEBUG: CMediaSourceSettings: found share, removing!
12:27:38 T:6159888384 DEBUG: found key /userdata/sources.xml
12:27:38 T:6159888384 DEBUG: Previous line repeats 1 times.
12:27:38 T:6159888384 DEBUG: NSUSerDefaults: compressed /userdata/sources.xml from 565 to 199
12:27:39 T:6159888384 DEBUG: ------ Window Init (DialogYesNo.xml) ------
12:27:41 T:6159888384 DEBUG: ------ Window Deinit (DialogYesNo.xml) ------
12:27:41 T:6159888384 DEBUG: DialogProgress::Open called
12:27:41 T:6159888384 DEBUG: ------ Window Init (DialogProgress.xml) ------
12:27:41 T:6159888384 INFO: Loading skin file: DialogProgress.xml, load type: KEEP_IN_MEMORY
12:27:41 T:6159888384 DEBUG: ------ Window Deinit (DialogProgress.xml) ------
12:27:45 T:6158168064 DEBUG: ScanForExternalSubtitles: END (total time: 16379 ms)
12:27:45 T:6158168064 DEBUG: FactoryCodec - Video: - Opening
12:27:45 T:6158168064 NOTICE: CDVDVideoCodecFFmpeg::Open() Using codec: H.264 / AVC / MPEG-4 AVC / MPEG-4 part 10
12:27:45 T:6158168064 DEBUG: FactoryCodec - Video: ff-h264 - Opened
12:27:45 T:6158168064 DEBUG: ExtractThumb - seeking to pos 2208970ms (total: 6626912ms) in smb://SERVER/Movies/8 Mile (2002).mkv
12:27:45 T:6158168064 DEBUG: Seek - waiting for position 1304401206.
12:27:45 T:6158168064 DEBUG: ffmpeg[16F0E3000]: [h264] Reinit context to 720x368, pix_fmt: yuv420p
12:27:46 T:6158168064 DEBUG: CDSMFile::Close closing fd 268517379
12:27:46 T:6158168064 DEBUG: ExtractThumb - measured 18172 ms to extract thumb from file <smb://SERVER/Movies/8 Mile (2002).mkv> in 3 packets.
12:27:46 T:6159888384 INFO: Loading skin file: DialogMediaSource.xml, load type: KEEP_IN_MEMORY
12:27:46 T:6159888384 DEBUG: ------ Window Init (DialogMediaSource.xml) ------
12:27:48 T:6159888384 INFO: Loading skin file: FileBrowser.xml, load type: KEEP_IN_MEMORY
12:27:48 T:6159888384 DEBUG: found key /userdata/mediasources.xml

12:28:35 T:6156398592 WARNING: Process directory 'smb://SERVER/Movies/' does not exist - skipping scan.
12:28:35 T:6159888384 DEBUG: ------ Window Deinit (DialogProgress.xml) ------
12:28:35 T:6156398592 NOTICE: VideoInfoScanner: Finished scan. Scanning for video info took 00:00
12:28:35 T:6156398592 DEBUG: CGUIWindowHome::Announce, type: 16, from xbmc, message OnScanFinished
12:28:35 T:6159888384 DEBUG: ------ Window Deinit (DialogExtendedProgressBar.xml) ------
12:28:37 T:6159888384 DEBUG: CGUIWindowManager::PreviousWindow: Deactivate
12:28:37 T:6159888384 DEBUG: ------ Window Deinit (MyVideoNav.xml) ------
12:28:37 T:6159888384 DEBUG: CGUIWindowManager::PreviousWindow: Activate new
12:28:37 T:6159888384 DEBUG: ------ Window Init (Home.xml) ------
12:28:37 T:6158168064 DEBUG: CHomeShelfJob::UpdateVideos() - Running HomeShelf screen update
12:28:37 T:6158168064 ERROR: GetDirectory - Error getting library://video/inprogressmovies.xml/

12:32:29 T:6158168064 DEBUG: DoWork - trying to extract thumb from video file smb://SERVER/Movies/30 Minutes or Less (2011).mkv
12:32:29 T:6158168064 DEBUG: CFileCache::Open - opening <Movies/30 Minutes or Less (2011).mkv> using cache
12:32:29 T:6158168064 DEBUG: CDSMFile::Open - opened Movies/30 Minutes or Less (2011).mkv, fd=268501007
12:32:29 T:6158168064 DEBUG: Open - m_ioContext->max_packet_size(1) = 0
12:32:29 T:6157594624 DEBUG: Read - max read bytes = 65535
12:32:29 T:6158168064 DEBUG: Open - probing detected format [matroska,webm]
12:32:29 T:6158168064 DEBUG: Open - avformat_find_stream_info starting
12:32:29 T:6158168064 DEBUG: ffmpeg[16F0E3000]: [h264] Reinit context to 720x368, pix_fmt: yuv420p
12:32:29 T:6158168064 DEBUG: Open - av_find_stream_info finished
12:32:29 T:6158168064 INFO: ffmpeg[16F0E3000]: Input #0, matroska,webm, smb://SERVER/Movies/30 Minutes or Less (2011).mk':
12:32:29 T:6158168064 INFO: ffmpeg[16F0E3000]: Metadata:
12:32:29 T:6158168064 INFO: ffmpeg[16F0E3000]: ENCODER : Lavf55.12.0
12:32:29 T:6158168064 INFO: ffmpeg[16F0E3000]: Duration: 01:22:58.63, start: 0.083000, bitrate: 1244 kb/s
12:32:29 T:6158168064 INFO: ffmpeg[16F0E3000]: Stream #0:0: Video: h264 (Main), yuv420p(tv, smpte170m/smpte170m/bt709, progressive), 720x360 [SAR 32:27 DAR 64:27], SAR 186:157 DAR 372:157, 23.98 fps, 23.98 tbr, 1k tbn, 180k tbc (default)
12:32:29 T:6158168064 INFO: ffmpeg[16F0E3000]: Stream #0:1(eng): Audio: ac3, 48000 Hz, 5.1(side), fltp, 448 kb/s (default)
12:32:29 T:6158168064 INFO: ffmpeg[16F0E3000]: Metadata:
12:32:29 T:6158168064 INFO: ffmpeg[16F0E3000]: title : Surround
12:32:29 T:6158168064 INFO: ffmpeg[16F0E3000]: LANGUAGE : eng
12:32:29 T:6158168064 INFO: ffmpeg[16F0E3000]: Stream #0:2(eng): Subtitle: dvd_subtitle, 720x480
12:32:29 T:6158168064 DEBUG: CDVDDemuxFFmpeg::AddStream(0, ...) -> 0
12:32:29 T:6158168064 DEBUG: CDVDDemuxFFmpeg::AddStream(1, ...) -> 1
12:32:29 T:6158168064 DEBUG: CDVDDemuxFFmpeg::AddStream(2, ...) -> 2

User avatar
amet
Team MrMC
Posts: 2219
Joined: 26 Oct 2015, 16:59

Re: Hello

Post by amet » 03 Mar 2018, 21:12

Something is not right with your source setup, what’s your server?

And please do not post debuglog in the forum, use pastebin as stated in the wiki instructions

Babybau
Posts: 5
Joined: 02 Mar 2018, 05:46

Re: Hello

Post by Babybau » 04 Mar 2018, 00:18

Hi,

My “server” is a Windows 10 PC that just sits in a closet for file storage. Everything is on mirrored drives the whole drive is just movies. For my kodi setup everything worked as expected when adding the drives. Sorry about the log dump.

User avatar
amet
Team MrMC
Posts: 2219
Joined: 26 Oct 2015, 16:59

Re: Hello

Post by amet » 04 Mar 2018, 05:15

Code: Select all

12:28:35 T:6156398592 WARNING: Process directory 'smb://SERVER/Movies/' does not exist - skipping scan.
It tells me that something is not right with that share setup, are you able to manually browse through it?

Babybau
Posts: 5
Joined: 02 Mar 2018, 05:46

Re: Hello

Post by Babybau » 04 Mar 2018, 06:12

Yes, if I go into the files section and click on the movies source all of my videos show there. If I Long click on a movie and choose movie information, it will pull up the data and then add it to the movies section. However, if I clean the library from the systems section it will then remove the movies.

User avatar
amet
Team MrMC
Posts: 2219
Joined: 26 Oct 2015, 16:59

Re: Hello

Post by amet » 04 Mar 2018, 12:02

I honestly can’t see where the issue is, I have tried setting it up here and it works just fine.

What happens if you choose different metadata provider? Try it just as a test to eliminate universal scraper issues.

Post Reply

Who is online

Users browsing this forum: No registered users and 2 guests