1. No user installed addons are supported, python or otherwise.
2. No, they really are not supported.
3. They are not coming back
4. Read from 1. again

Any mention of illegal streaming sites, addons or any pirated material will not be tolerated. This is not democracy and any offenders will be banned and posts deleted immediately without warning.

Other than that, we hope you enjoy MrMC so far and we welcome any input and feedback you might have.

Team MrMC.

h.265 3D doesn't start

FireTV Video playback support subforum
Post Reply
papak011
Posts: 3
Joined: 03 Aug 2017, 19:08

h.265 3D doesn't start

Post by papak011 » 14 Oct 2017, 18:44

Hi,

I tried to play a 3D movie but doesn't start (nothing happen). The same movie works with Plex AFTV client on the same stick fine. I'm not sure if AAC 6.1 audio cause this issue or something others.

Media Info:

General
Unique ID : 223142618494656083071295399735307217251 (0xA7DFB4804E282E55B47A77E7DC572963)
Complete name : Y:\Video\3D filmovi\King.Arthur Legend of the Sword 3D HEVC.mkv
Format : Matroska
Format version : Version 4 / Version 2
File size : 2.76 GiB
Duration : 2 h 6 min
Overall bit rate : 3 135 kb/s
Movie name : PSArips.com | King.Arthur.Legend.of.the.Sword.2017.1080p.3D.10bit.BluRay.H-SBS.8CH.x265.HEVC-PSA
Encoded date : UTC 2017-08-03 18:44:47
Writing application : mkvmerge v14.0.0 ('Flow') 64bit
Writing library : libebml v1.3.4 + libmatroska v1.4.5

Video
ID : 1
Format : HEVC
Format/Info : High Efficiency Video Coding
Format profile : Main 10@L4@Main
Codec ID : V_MPEGH/ISO/HEVC
Duration : 2 h 6 min
Bit rate : 2 847 kb/s
Width : 1 920 pixels
Height : 800 pixels
Display aspect ratio : 2.40:1
Frame rate mode : Constant
Frame rate : 23.976 (24000/1001) FPS
Color space : YUV
Chroma subsampling : 4:2:0
Bit depth : 10 bits
Bits/(Pixel*Frame) : 0.077
Stream size : 2.51 GiB (91%)
Default : Yes
Forced : No

Audio
ID : 2
Format : AAC
Format/Info : Advanced Audio Codec
Format profile : HE-AAC / LC
Format settings : Explicit
Codec ID : A_AAC-2
Duration : 2 h 6 min
Bit rate : 288 kb/s
Channel(s) : 7 channels
Channel(s)_Original : 8 channels
Channel positions : Front: L C R, Side: L R, Back: L R, LFE
Sampling rate : 48.0 kHz / 24.0 kHz
Frame rate : 23.438 FPS (1024 SPF)
Compression mode : Lossy
Delay relative to video : 31 ms
Stream size : 258 MiB (9%)
Default : Yes
Forced : No

Text
ID : 3
Format : UTF-8
Codec ID : S_TEXT/UTF8
Codec ID/Info : UTF-8 Plain Text
Duration : 1 h 56 min
Bit rate : 44 b/s
Count of elements : 1255
Stream size : 38.2 KiB (0%)
Language : English
Default : Yes
Forced : No

Debug log is here.

Any help would be appreciated.

Thanks in advance.

Best regards,
Miomir

Post Reply

Who is online

Users browsing this forum: No registered users and 1 guest