1. No user installed addons are supported, python or otherwise.
2. No, they really are not supported.
3. They are not coming back
4. Read from 1. again

Any mention of illegal streaming sites, addons or any pirated material will not be tolerated. This is not democracy and any offenders will be banned and posts deleted immediately without warning.

Other than that, we hope you enjoy MrMC so far and we welcome any input and feedback you might have.

Team MrMC.

Testing MrMC 3.3.1

User avatar
timstephens24
Posts: 429
Joined: 09 Dec 2015, 22:43

Re: Testing MrMC 3.3.1

Post by timstephens24 » 03 Dec 2017, 20:45

Hopefully someone else can test it, I'm out of town until Friday.

User avatar
davilla
Team MrMC
Posts: 2462
Joined: 26 Oct 2015, 17:01

Re: Testing MrMC 3.3.1

Post by davilla » 03 Dec 2017, 21:14

timstephens24 wrote:
03 Dec 2017, 20:45
Hopefully someone else can test it, I'm out of town until Friday.
HAHAHAHA, figures. I add dolbyvision support, and you are out of town :)

User avatar
davilla
Team MrMC
Posts: 2462
Joined: 26 Oct 2015, 17:01

Re: Testing MrMC 3.3.1

Post by davilla » 04 Dec 2017, 00:31

roll call testers :) everything good ?

hwf2014
Posts: 1
Joined: 01 Dec 2015, 11:20

Re: Testing MrMC 3.3.1

Post by hwf2014 » 04 Dec 2017, 06:41

Everything is working fine this morning.
I don’t have a 4K device so I could only check the SDR version.
Is there a chance to get vertical shift back with HDR content?

mrs4t4n
Posts: 20
Joined: 21 Nov 2017, 14:05

Re: Testing MrMC 3.3.1

Post by mrs4t4n » 04 Dec 2017, 07:40

davilla wrote:
04 Dec 2017, 00:31
roll call testers :) everything good ?
I play yesterday "Iron Man" UHD file, works perfectly...
But then i play a "The Big Bang Theory" episode and i think there is something wrong... no HDR popup, but the black levels are raised up and the black are grey... All the picture looks washed, clearly visible in title credits where i can see the banding that i see in test 5% - 15% near black.
After that i try the same file with VLC player and Infuse and works fine...

I will test another file and get the log if it happens again.

PS: My Settings: 4K@60Hz SDR

User avatar
davilla
Team MrMC
Posts: 2462
Joined: 26 Oct 2015, 17:01

Re: Testing MrMC 3.3.1

Post by davilla » 04 Dec 2017, 16:11

mrs4t4n wrote:
04 Dec 2017, 07:40
davilla wrote:
04 Dec 2017, 00:31
roll call testers :) everything good ?
I play yesterday "Iron Man" UHD file, works perfectly...
But then i play a "The Big Bang Theory" episode and i think there is something wrong... no HDR popup, but the black levels are raised up and the black are grey... All the picture looks washed, clearly visible in title credits where i can see the banding that i see in test 5% - 15% near black.
After that i try the same file with VLC player and Infuse and works fine...

I will test another file and get the log if it happens again.

PS: My Settings: 4K@60Hz SDR
"no HDR popup" ? MrMC does no such pop up.
Full media title or mediainfo on the file, please. I doubt a TV episode would be HDR so something about it triggered HDR when it should not.

User avatar
davilla
Team MrMC
Posts: 2462
Joined: 26 Oct 2015, 17:01

Re: Testing MrMC 3.3.1

Post by davilla » 04 Dec 2017, 16:12

hwf2014 wrote:
04 Dec 2017, 06:41
Everything is working fine this morning.
I don’t have a 4K device so I could only check the SDR version.
Is there a chance to get vertical shift back with HDR content?
On list, I think we can do it but have to dive into the maze of code to see who does what.

mrs4t4n
Posts: 20
Joined: 21 Nov 2017, 14:05

Re: Testing MrMC 3.3.1

Post by mrs4t4n » 04 Dec 2017, 17:21

davilla wrote:
04 Dec 2017, 16:11
mrs4t4n wrote:
04 Dec 2017, 07:40
davilla wrote:
04 Dec 2017, 00:31
roll call testers :) everything good ?
I play yesterday "Iron Man" UHD file, works perfectly...
But then i play a "The Big Bang Theory" episode and i think there is something wrong... no HDR popup, but the black levels are raised up and the black are grey... All the picture looks washed, clearly visible in title credits where i can see the banding that i see in test 5% - 15% near black.
After that i try the same file with VLC player and Infuse and works fine...

I will test another file and get the log if it happens again.

PS: My Settings: 4K@60Hz SDR
"no HDR popup" ? MrMC does no such pop up.
Full media title or mediainfo on the file, please. I doubt a TV episode would be HDR so something about it triggered HDR when it should not.
I mean that when i play this file my tv don't changes to HDR mode, but the picture get whashed, with wrong black levels.
Here is the mediainfo:
https://pastebin.com/LAFcFHpi

And here the log:
https://pastebin.com/Wve7pPtK

mrs4t4n
Posts: 20
Joined: 21 Nov 2017, 14:05

Re: Testing MrMC 3.3.1

Post by mrs4t4n » 04 Dec 2017, 17:29

I think this is the interesting part:

Code: Select all

18:19:47 T:6165983232   DEBUG: AddOnLog: Tvheadend HTSP Client: pvr.hts - Announce(flag=Playlist, sender=xbmc, message=OnAdd)
18:19:47 T:6165983232   DEBUG: Loading settings for smb://192.168.1.201/Multimedia/Videos/Server/-=SERIES TV=-/The Big Bang Theory/season 11/The Big Bang Theory [2017][11x07] [WEB-DL 1080p] [Ac3 Dual ].mkv
18:19:47 T:6165983232   DEBUG: CPlayerCoreFactory::GetPlayers(smb://192.168.1.201/Multimedia/Videos/Server/-=SERIES TV=-/The Big Bang Theory/season 11/The Big Bang Theory [2017][11x07] [WEB-DL 1080p] [Ac3 Dual ].mkv)
18:19:47 T:6165983232   DEBUG: CPlayerSelectionRule::GetPlayers: matches rule: system rules
18:19:47 T:6165983232   DEBUG: CPlayerCoreFactory::GetPlayers: adding videodefaultplayer (1)
18:19:47 T:6165983232   DEBUG: CPlayerCoreFactory::GetPlayers: for video=1, audio=0
18:19:47 T:6165983232   DEBUG: CPlayerCoreFactory::GetPlayers: for video=1, audio=1
18:19:47 T:6165983232   DEBUG: CPlayerCoreFactory::GetPlayers: adding player: DVDPlayer (1)
18:19:47 T:6165983232   DEBUG: CPlayerCoreFactory::GetPlayers: added 1 players
18:19:47 T:6165983232  NOTICE: CDVDPlayer::Opening: smb://192.168.1.201/Multimedia/Videos/Server/-=SERIES TV=-/The Big Bang Theory/season 11/The Big Bang Theory [2017][11x07] [WEB-DL 1080p] [Ac3 Dual ].mkv
18:19:47 T:6165983232 WARNING: CDVDMessageQueue(player)::Put MSGQ_NOT_INITIALIZED
18:19:47 T:6162542592  NOTICE: Creating InputStream
18:19:47 T:6162542592   DEBUG: CSMBFile::Open - opened Multimedia/Videos/Server/-=SERIES TV=-/The Big Bang Theory/season 11/The Big Bang Theory [2017][11x07] [WEB-DL 1080p] [Ac3 Dual ].mkv, fd=10000
18:19:47 T:6162542592   DEBUG: ScanForExternalSubtitles: Searching for subtitles...
18:19:47 T:6162542592   DEBUG: ScanForExternalSubtitles: END (total time: 3 ms)
18:19:47 T:6162542592  NOTICE: Creating Demuxer
18:19:47 T:6162542592   DEBUG: Open - m_ioContext->max_packet_size(1) = 32768
18:19:47 T:6162542592   DEBUG: Read - max read bytes = 32768
18:19:47 T:6162542592   DEBUG: Open - probing detected format [matroska,webm]
18:19:47 T:6162542592   DEBUG: Open - avformat_find_stream_info starting
18:19:47 T:6162542592   DEBUG: ffmpeg[16F50F000]: [h264] Reinit context to 1920x1088, pix_fmt: yuv420p
18:19:47 T:6162542592   DEBUG: Open - av_find_stream_info finished
18:19:47 T:6162542592    INFO: ffmpeg[16F50F000]: Input #0, matroska,webm, smb://192.168.1.201/Multimedia/Videos/Server/-=SERIES TV=-/The Big Bang Theory/season 11/The Big Bang Theory [2017][11x07] [WEB-DL 1080p] [Ac3 Dual ].mk':
18:19:47 T:6162542592    INFO: ffmpeg[16F50F000]:   Metadata:
18:19:47 T:6162542592    INFO: ffmpeg[16F50F000]:     title           : The.Big.Bang.Theory.11x07.La.metodologia.de.la.geologia.m1080p.AMZN.WEB.DL.tenshou
18:19:47 T:6162542592    INFO: ffmpeg[16F50F000]:     encoder         : libebml v1.3.0 + libmatroska v1.4.1
18:19:47 T:6162542592    INFO: ffmpeg[16F50F000]:     creation_time   : 2017-11-18T14:54:27.000000Z
18:19:47 T:6162542592    INFO: ffmpeg[16F50F000]:   Duration: 00:19:35.88, start: 0.000000, bitrate: 2883 kb/s
18:19:47 T:6162542592    INFO: ffmpeg[16F50F000]:     Stream #0:0(eng): Video: h264 (High), yuv420p(tv, bt709, progressive), 1920x1080 [SAR 1:1 DAR 16:9], 23.98 fps, 23.98 tbr, 1k tbn, 47.95 tbc (default)
18:19:47 T:6162542592    INFO: ffmpeg[16F50F000]:     Metadata:
18:19:47 T:6162542592    INFO: ffmpeg[16F50F000]:       title           : The.Big.Bang.Theory.11x07.La.metodologia.de.la.geologia.m1080p.AMZN.WEB.DL.tenshou
18:19:47 T:6162542592    INFO: ffmpeg[16F50F000]:       _STATISTICS_WRITING_APP: mkvmerge v7.6.0 ('Garden of Dreams') 64bit built on Feb  8 2015 13:04:34
18:19:47 T:6162542592    INFO: ffmpeg[16F50F000]:       _STATISTICS_WRITING_APP-eng: mkvmerge v7.6.0 ('Garden of Dreams') 64bit built on Feb  8 2015 13:04:34
18:19:47 T:6162542592    INFO: ffmpeg[16F50F000]:       _STATISTICS_WRITING_DATE_UTC: 2017-11-16 22:17:18
18:19:47 T:6162542592    INFO: ffmpeg[16F50F000]:       _STATISTICS_WRITING_DATE_UTC-eng: 2017-11-16 22:17:18
18:19:47 T:6162542592    INFO: ffmpeg[16F50F000]:       _STATISTICS_TAGS: BPS DURATION NUMBER_OF_FRAMES NUMBER_OF_BYTES
18:19:47 T:6162542592    INFO: ffmpeg[16F50F000]:       _STATISTICS_TAGS-eng: BPS DURATION NUMBER_OF_FRAMES NUMBER_OF_BYTES
18:19:47 T:6162542592    INFO: ffmpeg[16F50F000]:       BPS             : 2497445
18:19:47 T:6162542592    INFO: ffmpeg[16F50F000]:       BPS-eng         : 2497445
18:19:47 T:6162542592    INFO: ffmpeg[16F50F000]:       DURATION        : 00:19:35.883000000
18:19:47 T:6162542592    INFO: ffmpeg[16F50F000]:       DURATION-eng    : 00:19:35.883000000
18:19:47 T:6162542592    INFO: ffmpeg[16F50F000]:       NUMBER_OF_FRAMES: 28193
18:19:47 T:6162542592    INFO: ffmpeg[16F50F000]:       NUMBER_OF_FRAMES-eng: 28193
18:19:47 T:6162542592    INFO: ffmpeg[16F50F000]:       NUMBER_OF_BYTES : 367087999
18:19:47 T:6162542592    INFO: ffmpeg[16F50F000]:       NUMBER_OF_BYTES-eng: 367087999
18:19:47 T:6162542592    INFO: ffmpeg[16F50F000]:     Stream #0:1(spa): Audio: ac3, 48000 Hz, stereo, fltp, 192 kb/s (default) (forced)
18:19:47 T:6162542592    INFO: ffmpeg[16F50F000]:     Metadata:
18:19:47 T:6162542592    INFO: ffmpeg[16F50F000]:       title           : The.Big.Bang.Theory.11x07.La.metodologia.de.la.geologia.m1080p.AMZN.WEB.DL.tenshou
18:19:47 T:6162542592    INFO: ffmpeg[16F50F000]:       BPS             : 192000
18:19:47 T:6162542592    INFO: ffmpeg[16F50F000]:       BPS-eng         : 192000
18:19:47 T:6162542592    INFO: ffmpeg[16F50F000]:       DURATION        : 00:19:35.840000000
18:19:47 T:6162542592    INFO: ffmpeg[16F50F000]:       DURATION-eng    : 00:19:35.840000000
18:19:47 T:6162542592    INFO: ffmpeg[16F50F000]:       NUMBER_OF_FRAMES: 36745
18:19:47 T:6162542592    INFO: ffmpeg[16F50F000]:       NUMBER_OF_FRAMES-eng: 36745
18:19:47 T:6162542592    INFO: ffmpeg[16F50F000]:       NUMBER_OF_BYTES : 28220160
18:19:47 T:6162542592    INFO: ffmpeg[16F50F000]:       NUMBER_OF_BYTES-eng: 28220160
18:19:47 T:6162542592    INFO: ffmpeg[16F50F000]:       _STATISTICS_WRITING_APP: mkvmerge v7.6.0 ('Garden of Dreams') 64bit built on Feb  8 2015 13:04:34
18:19:47 T:6162542592    INFO: ffmpeg[16F50F000]:       _STATISTICS_WRITING_APP-eng: mkvmerge v7.6.0 ('Garden of Dreams') 64bit built on Feb  8 2015 13:04:34
18:19:47 T:6162542592    INFO: ffmpeg[16F50F000]:       _STATISTICS_WRITING_DATE_UTC: 2017-11-16 22:17:18
18:19:47 T:6162542592    INFO: ffmpeg[16F50F000]:       _STATISTICS_WRITING_DATE_UTC-eng: 2017-11-16 22:17:18
18:19:47 T:6162542592    INFO: ffmpeg[16F50F000]:       _STATISTICS_TAGS: BPS DURATION NUMBER_OF_FRAMES NUMBER_OF_BYTES
18:19:47 T:6162542592    INFO: ffmpeg[16F50F000]:       _STATISTICS_TAGS-eng: BPS DURATION NUMBER_OF_FRAMES NUMBER_OF_BYTES
18:19:47 T:6162542592    INFO: ffmpeg[16F50F000]:     Stream #0:2(eng): Audio: ac3, 48000 Hz, stereo, fltp, 192 kb/s
18:19:47 T:6162542592    INFO: ffmpeg[16F50F000]:     Metadata:
18:19:47 T:6162542592    INFO: ffmpeg[16F50F000]:       title           : The.Big.Bang.Theory.11x07.La.metodologia.de.la.geologia.m1080p.AMZN.WEB.DL.tenshou
18:19:47 T:6162542592    INFO: ffmpeg[16F50F000]:       _STATISTICS_WRITING_APP: mkvmerge v7.6.0 ('Garden of Dreams') 64bit built on Feb  8 2015 13:04:34
18:19:47 T:6162542592    INFO: ffmpeg[16F50F000]:       _STATISTICS_WRITING_APP-eng: mkvmerge v7.6.0 ('Garden of Dreams') 64bit built on Feb  8 2015 13:04:34
18:19:47 T:6162542592    INFO: ffmpeg[16F50F000]:       _STATISTICS_WRITING_DATE_UTC: 2017-11-16 22:17:18
18:19:47 T:6162542592    INFO: ffmpeg[16F50F000]:       _STATISTICS_WRITING_DATE_UTC-eng: 2017-11-16 22:17:18
18:19:47 T:6162542592    INFO: ffmpeg[16F50F000]:       _STATISTICS_TAGS: BPS DURATION NUMBER_OF_FRAMES NUMBER_OF_BYTES
18:19:47 T:6162542592    INFO: ffmpeg[16F50F000]:       _STATISTICS_TAGS-eng: BPS DURATION NUMBER_OF_FRAMES NUMBER_OF_BYTES
18:19:47 T:6162542592    INFO: ffmpeg[16F50F000]:       BPS             : 192000
18:19:47 T:6162542592    INFO: ffmpeg[16F50F000]:       BPS-eng         : 192000
18:19:47 T:6162542592    INFO: ffmpeg[16F50F000]:       DURATION        : 00:19:35.840000000
18:19:47 T:6162542592    INFO: ffmpeg[16F50F000]:       DURATION-eng    : 00:19:35.840000000
18:19:47 T:6162542592    INFO: ffmpeg[16F50F000]:       NUMBER_OF_FRAMES: 36745
18:19:47 T:6162542592    INFO: ffmpeg[16F50F000]:       NUMBER_OF_FRAMES-eng: 36745
18:19:47 T:6162542592    INFO: ffmpeg[16F50F000]:       NUMBER_OF_BYTES : 28220160
18:19:47 T:6162542592    INFO: ffmpeg[16F50F000]:       NUMBER_OF_BYTES-eng: 28220160
18:19:47 T:6162542592    INFO: ffmpeg[16F50F000]:     Stream #0:3(spa): Subtitle: subrip
18:19:47 T:6162542592    INFO: ffmpeg[16F50F000]:     Metadata:
18:19:47 T:6162542592    INFO: ffmpeg[16F50F000]:       title           : COMPLETOS
18:19:47 T:6162542592    INFO: ffmpeg[16F50F000]:       BPS             : 104
18:19:47 T:6162542592    INFO: ffmpeg[16F50F000]:       BPS-eng         : 104
18:19:47 T:6162542592    INFO: ffmpeg[16F50F000]:       DURATION        : 00:19:12.690000000
18:19:47 T:6162542592    INFO: ffmpeg[16F50F000]:       DURATION-eng    : 00:19:12.690000000
18:19:47 T:6162542592    INFO: ffmpeg[16F50F000]:       NUMBER_OF_FRAMES: 420
18:19:47 T:6162542592    INFO: ffmpeg[16F50F000]:       NUMBER_OF_FRAMES-eng: 420
18:19:47 T:6162542592    INFO: ffmpeg[16F50F000]:       NUMBER_OF_BYTES : 15128
18:19:47 T:6162542592    INFO: ffmpeg[16F50F000]:       NUMBER_OF_BYTES-eng: 15128
18:19:47 T:6162542592    INFO: ffmpeg[16F50F000]:       _STATISTICS_WRITING_APP: mkvmerge v7.6.0 ('Garden of Dreams') 64bit built on Feb  8 2015 13:04:34
18:19:47 T:6162542592    INFO: ffmpeg[16F50F000]:       _STATISTICS_WRITING_APP-eng: mkvmerge v7.6.0 ('Garden of Dreams') 64bit built on Feb  8 2015 13:04:34
18:19:47 T:6162542592    INFO: ffmpeg[16F50F000]:       _STATISTICS_WRITING_DATE_UTC: 2017-11-16 22:17:18
18:19:47 T:6162542592    INFO: ffmpeg[16F50F000]:       _STATISTICS_WRITING_DATE_UTC-eng: 2017-11-16 22:17:18
18:19:47 T:6162542592    INFO: ffmpeg[16F50F000]:       _STATISTICS_TAGS: BPS DURATION NUMBER_OF_FRAMES NUMBER_OF_BYTES
18:19:47 T:6162542592    INFO: ffmpeg[16F50F000]:       _STATISTICS_TAGS-eng: BPS DURATION NUMBER_OF_FRAMES NUMBER_OF_BYTES
18:19:47 T:6162542592    INFO: ffmpeg[16F50F000]:     Stream #0:4(eng): Subtitle: subrip
18:19:47 T:6162542592    INFO: ffmpeg[16F50F000]:     Metadata:
18:19:47 T:6162542592    INFO: ffmpeg[16F50F000]:       title           : COMPLETOS
18:19:47 T:6162542592    INFO: ffmpeg[16F50F000]:       _STATISTICS_WRITING_APP: mkvmerge v7.6.0 ('Garden of Dreams') 64bit built on Feb  8 2015 13:04:34
18:19:47 T:6162542592    INFO: ffmpeg[16F50F000]:       _STATISTICS_WRITING_APP-eng: mkvmerge v7.6.0 ('Garden of Dreams') 64bit built on Feb  8 2015 13:04:34
18:19:47 T:6162542592    INFO: ffmpeg[16F50F000]:       _STATISTICS_WRITING_DATE_UTC: 2017-11-16 22:17:18
18:19:47 T:6162542592    INFO: ffmpeg[16F50F000]:       _STATISTICS_WRITING_DATE_UTC-eng: 2017-11-16 22:17:18
18:19:47 T:6162542592    INFO: ffmpeg[16F50F000]:       _STATISTICS_TAGS: BPS DURATION NUMBER_OF_FRAMES NUMBER_OF_BYTES
18:19:47 T:6162542592    INFO: ffmpeg[16F50F000]:       _STATISTICS_TAGS-eng: BPS DURATION NUMBER_OF_FRAMES NUMBER_OF_BYTES
18:19:47 T:6162542592    INFO: ffmpeg[16F50F000]:       BPS             : 101
18:19:47 T:6162542592    INFO: ffmpeg[16F50F000]:       BPS-eng         : 101
18:19:47 T:6162542592    INFO: ffmpeg[16F50F000]:       DURATION        : 00:19:05.077000000
18:19:47 T:6162542592    INFO: ffmpeg[16F50F000]:       DURATION-eng    : 00:19:05.077000000
18:19:47 T:6162542592    INFO: ffmpeg[16F50F000]:       NUMBER_OF_FRAMES: 440
18:19:47 T:6162542592    INFO: ffmpeg[16F50F000]:       NUMBER_OF_FRAMES-eng: 440
18:19:47 T:6162542592    INFO: ffmpeg[16F50F000]:       NUMBER_OF_BYTES : 14564
18:19:47 T:6162542592    INFO: ffmpeg[16F50F000]:       NUMBER_OF_BYTES-eng: 14564
18:19:47 T:6162542592   DEBUG: CDVDDemuxFFmpeg::AddStream(0, ...) -> 0
18:19:47 T:6162542592   DEBUG: CDVDDemuxFFmpeg::AddStream(1, ...) -> 1
18:19:47 T:6162542592   DEBUG: CDVDDemuxFFmpeg::AddStream(2, ...) -> 2
18:19:47 T:6162542592   DEBUG: CDVDDemuxFFmpeg::AddStream(3, ...) -> 3
18:19:47 T:6162542592   DEBUG: CDVDDemuxFFmpeg::AddStream(4, ...) -> 4
18:19:47 T:6162542592  NOTICE: Opening stream: 0 source: 256
18:19:47 T:6162542592  NOTICE: Creating video codec with codec id: 28
18:19:47 T:6162542592   DEBUG: FactoryCodec - Video: vtb - Opening
18:19:47 T:6162542592  NOTICE: Constructing new format description
18:19:47 T:6162542592   DEBUG: VideoToolBox: opened width(1920), height(1080)
18:19:47 T:6162542592   DEBUG: FactoryCodec - Video: vtb-h264 - Opened
18:19:47 T:6162542592  NOTICE: Creating video thread
18:19:47 T:6162542592  NOTICE: Opening stream: 1 source: 256
18:19:47 T:6162542592  NOTICE: Finding audio codec for: 86019
18:19:47 T:6163116032  NOTICE: running thread: video_thread
18:19:47 T:6162542592   DEBUG: FactoryCodec - Audio: dac - Opening
18:19:47 T:6162542592   DEBUG: FactoryCodec - Audio: dac - channel_layout(3) = 'stereo'
18:19:47 T:6162542592   DEBUG: FactoryCodec - Audio: dac-ac3 - Opened
18:19:47 T:6162542592  NOTICE: Creating audio thread
18:19:47 T:6162542592  NOTICE: Opening stream: 3 source: 256
18:19:47 T:6162542592   DEBUG: FactoryCodec - Overlay: Text Subtitle Decoder - Opening
18:19:47 T:6166556672  NOTICE: running thread: CDVDPlayerAudio::Process()
18:19:47 T:6162542592   DEBUG: FactoryCodec - Overlay: Text Subtitle Decoder - Opened
18:19:47 T:6162542592   DEBUG: ReadEditDecisionLists - Checking for edit decision lists (EDL) on local drive or remote share for: smb://192.168.1.201/Multimedia/Videos/Server/-=SERIES TV=-/The Big Bang Theory/season 11/The Big Bang Theory [2017][11x07] [WEB-DL 1080p] [Ac3 Dual ].mkv
18:19:47 T:6162542592   DEBUG: OnPlayBackStarted: play state was 1, starting 1
18:19:47 T:6165983232   DEBUG: PlayFile: OpenFile succeed, play state 2
18:19:47 T:6165983232   DEBUG: OnPlayBackStarted: play state was 2, starting 0
18:19:47 T:6163116032    INFO: CDVDPlayerVideo - Stillframe left, switching to normal playback
18:19:47 T:6163116032   DEBUG: CDVDPlayerVideo::CalcDropRequirement - hurry: 0
18:19:47 T:6162542592   DEBUG: Read - max read bytes = 53419
18:19:47 T:6166556672  NOTICE: Creating audio stream (codec id: 86019, channels: 2, sample rate: 48000, no pass-through)
18:19:47 T:6166556672   DEBUG: CDVDPlayerAudio:: synctype set to 0: clock feedback
18:19:47 T:6165983232   DEBUG: CGUIInfoManager::SetCurrentMovie(smb://192.168.1.201/Multimedia/Videos/Server/-=SERIES TV=-/The Big Bang Theory/season 11/The Big Bang Theory [2017][11x07] [WEB-DL 1080p] [Ac3 Dual ].mkv)
18:19:47 T:6167130112   DEBUG: CActiveAE::ClearDiscardedBuffers - buffer pool deleted
18:19:47 T:6162542592   DEBUG: CDVDPlayer::HandleMessages - player started DVDPLAYER_AUDIO
18:19:47 T:6165983232   DEBUG: GetMovieId (smb://192.168.1.201/Multimedia/Videos/Server/-=SERIES TV=-/The Big Bang Theory/season 11/The Big Bang Theory [2017][11x07] [WEB-DL 1080p] [Ac3 Dual ].mkv), query = select idMovie from movie where idFile=98
18:19:47 T:6165983232   DEBUG: GetEpisodeId (smb://192.168.1.201/Multimedia/Videos/Server/-=SERIES TV=-/The Big Bang Theory/season 11/The Big Bang Theory [2017][11x07] [WEB-DL 1080p] [Ac3 Dual ].mkv), query = select idEpisode from episode where idFile=98
18:19:47 T:6163116032   DEBUG: CDVDPlayerVideo::CalcDropRequirement - hurry: 0
18:19:47 T:6165983232   DEBUG: Previous line repeats 1 times.
18:19:47 T:6165983232   DEBUG: AddOnLog: Tvheadend HTSP Client: pvr.hts - Announce(flag=Player, sender=xbmc, message=OnPlay)
18:19:47 T:6163116032   DEBUG: CDVDPlayerVideo::CalcDropRequirement - hurry: 0
18:19:47 T:6162542592   DEBUG: Previous line repeats 4 times.
18:19:47 T:6162542592   DEBUG: Read - max read bytes = 187728
18:19:47 T:6163116032   DEBUG: CDVDPlayerVideo::CalcDropRequirement - hurry: 0
18:19:47 T:6189412352   DEBUG: Previous line repeats 8 times.
18:19:47 T:6189412352   DEBUG: JSONRPC: Value does not lay between minimum and maximum in type playlistid
18:19:47 T:6163116032   DEBUG: CDVDPlayerVideo::CalcDropRequirement - hurry: 0
18:19:47 T:6163116032  NOTICE:  fps: 23.976024, pwidth: 1920, pheight: 1080, dwidth: 1920, dheight: 1080, colorspace: bt709
18:19:47 T:6163116032   DEBUG: OutputPicture - change configuration. 1920x1080. framerate: 23.98. format: BGRA
18:19:47 T:6163116032  NOTICE: Display resolution DESKTOP : 3840x2160@ 59.94 - Full Screen (16)
18:19:47 T:6163116032   DEBUG: displayRateSwitch request: refreshRate = 23.98, dynamicRange = 1
Stream #0:0(eng): Video: h264 (High), yuv420p(tv, bt709, progressive)
displayRateSwitch request: refreshRate = 23.98, dynamicRange = 1

I din't see nothing wrong, but the the blacks are grey... i could record a video if you want...

User avatar
davilla
Team MrMC
Posts: 2462
Joined: 26 Oct 2015, 17:01

Re: Testing MrMC 3.3.1

Post by davilla » 04 Dec 2017, 17:33

DEBUG: displayModeSwitchInProgress == DONE, refreshRate = 23.98, dynamicRange = 1

Odd, it detected SDR and switched to it.

Which tvOS11.2 beta are you running ?

Do you the same issue with the recent 3.3.1 testflight ?

NOTICE: Starting MrMC (3.3-1 Git:2017-12-01-90f9e82). Platform: TVOS ARM64 64-bit
(20171201-90f9e82)
darwin: fixed bt709 incorrectly triggering HDR mode on tvOS

(20171203-e69e483)
refactor dynamic range detect/change
enabled dolbyvision testing

Post Reply

Who is online

Users browsing this forum: No registered users and 3 guests